<?xml version="1.0" standalone="no"?>
<!DOCTYPE svg PUBLIC "-//W3C//DTD SVG 1.1//EN" "http://www.w3.org/Graphics/SVG/1.1/DTD/svg11.dtd" >
<svg xmlns="http://www.w3.org/2000/svg">
<metadata>Generated by IcoMoon</metadata>
<defs>
<font id="wae-icon" horiz-adv-x="2048">
<font-face units-per-em="2048" ascent="1664" descent="-384" />
<missing-glyph horiz-adv-x="2048" />
<glyph unicode="&#x20;" horiz-adv-x="512" d="" />
<glyph unicode="&#xe900;" glyph-name="share" d="M1504 448c-89.344 0-168.32-41.792-221.184-105.856l-459.776 229.888c5.312 21.888 8.96 44.48 8.96 67.968s-3.648 46.080-8.96 67.968l459.776 229.888c52.864-64.064 131.84-105.856 221.184-105.856 158.784 0 288 129.216 288 288s-129.216 288-288 288-288-129.216-288-288c0-23.488 3.648-46.080 8.96-67.968l-459.776-229.888c-52.864 64.064-131.84 105.856-221.184 105.856-158.784 0-288-129.216-288-288s129.216-288 288-288c89.344 0 168.32 41.792 221.184 105.856l459.776-229.888c-5.312-21.888-8.96-44.48-8.96-67.968 0-158.784 129.216-288 288-288s288 129.216 288 288-129.216 288-288 288zM1504 1280c88.256 0 160-71.808 160-160s-71.744-160-160-160-160 71.808-160 160 71.744 160 160 160zM544 480c-88.192 0-160 71.744-160 160 0 88.192 71.808 160 160 160s160-71.808 160-160c0-88.256-71.808-160-160-160zM1504 0c-88.256 0-160 71.744-160 160s71.744 160 160 160 160-71.744 160-160-71.744-160-160-160z" />
<glyph unicode="&#xe901;" glyph-name="attention" d="M1024 1408c-424.156 0-768-343.844-768-768s343.844-768 768-768 768 343.844 768 768-343.844 768-768 768zM1024 0c-352.898 0-640 287.102-640 640s287.102 640 640 640 640-287.102 640-640-287.102-640-640-640zM960 1024h128v-512h-128v512zM960 384h128v-128h-128v128z" />
<glyph unicode="&#xe902;" glyph-name="podcast" d="M1056 1472c-405.824 0-736-330.176-736-736 0-297.536 177.844-553.846 432.5-669.75-7.232 54.016-12.946 107.624-15.25 153-173.248 107.264-289.25 298.446-289.25 516.75 0 335.232 272.768 608 608 608s608-272.768 608-608c0-218.304-116.002-409.486-289.25-516.75-2.304-45.312-8.018-98.984-15.25-153 254.656 115.904 432.5 372.214 432.5 669.75 0 405.824-330.176 736-736 736zM1056 1216c-264.704 0-480-215.296-480-480 0-150.656 69.948-285.186 178.876-373.25 14.464 39.104 38.884 75.352 73.124 105.624-75.712 64.64-124 160.554-124 267.626 0 194.048 157.952 352 352 352s352-157.952 352-352c0-107.072-48.288-202.986-124-267.626 34.24-30.208 58.724-66.456 73.124-105.624 108.928 88.064 178.876 222.594 178.876 373.25 0 264.704-215.296 480-480 480zM1056 960c-123.52 0-224-100.48-224-224s100.48-224 224-224c123.52 0 224 100.48 224 224s-100.48 224-224 224zM1056 832c52.928 0 96-43.072 96-96s-43.072-96-96-96c-52.928 0-96 43.072-96 96s43.072 96 96 96zM1056 448c-202.176 0-224-132.848-224-190 0-105.216 34.372-316.868 53.124-397.124 8.256-35.2 41.468-116.876 170.876-116.876s162.62 81.676 170.876 116.876c18.752 80.192 53.124 291.908 53.124 397.124 0 57.152-21.824 190-224 190zM1056 320c96 0 96-35.824 96-62 0-85.44-30.102-283.588-49.75-367.876-1.6-6.72-4.266-18.124-46.25-18.124s-44.65 11.344-46.25 18c-19.584 84.096-49.75 282.496-49.75 368 0 26.176 0 62 96 62z" />
<glyph unicode="&#xe903;" glyph-name="spotify" d="M1024 1408c-424.25 0-768-343.75-768-768s343.75-768 768-768c424.25 0 768 343.75 768 768s-343.75 768-768 768zM1024 1280c355.5 0 640-284.5 640-640s-284.5-640-640-640c-355.5 0-640 284.5-640 640s284.5 640 640 640zM922 976c-124.5 0-233-11.5-336-44-27.25-5.5-50-26-50-64s28-71.5 66-66c16.25 0 27.25 6 38 6 86.75 21.75 184.5 32 282 32 189.5 0 384-42.25 514-118 16.25-5.5 21.75-12 38-12 38 0 64.5 28 70 66 0 32.5-16.25 53.25-38 64-162.5 92-378.25 136-584 136zM904 738c-113.75 0-194.75-16.25-276-38-27-10.75-42-27.5-42-60 0-27 21.5-54 54-54 11 0 15.75 0.5 32 6 59.5 16.25 141.25 26 228 26 178.75 0 334.25-43.5 448-114 10.75-5.5 21.75-10 38-10 32.5 0 54 27.5 54 60 0 21.75-10.25 43.25-32 54-140.75 86.75-319.75 130-504 130zM922 504c-92 0-179.25-10.25-266-32-21.75-5.5-38-21-38-48 0-21.75 17-44 44-44 5.5 0 21.25 6 32 6 70.5 16.25 146.25 26 222 26 135.25 0 259-32.5 362-92 11-5.5 23.25-10 34-10 21.75 0 42.5 16.25 48 38 0 27.25-11.75 37.25-28 48-119.25 70.5-258.5 108-410 108z" />
<glyph unicode="&#xe904;" glyph-name="arrow-down" d="M960 1408h128v-1283.968l432 435.968 96-96-544-544-48-40-48 40-544 544 96 96 432-435.968v1283.968z" />
<glyph unicode="&#xe905;" glyph-name="arrow-left" d="M848 1232l96-96-436.032-432h1284.032v-128h-1284.032l435.968-432-96-96-544 544-39.936 48 40 48 544 544z" />
<glyph unicode="&#xe906;" glyph-name="arrow-right" d="M1200 48l-96 96 435.968 432h-1283.968v128h1283.968l-435.968 432 96 96 544-544 40-48-40-48-544-544z" />
<glyph unicode="&#xe907;" glyph-name="arrow-up" d="M1088-120h-128v1284.032l-432-435.968-96 96 544 544 48 39.936 48-40 544-544-96-96-432 436.032v-1284.032z" />
<glyph unicode="&#xe908;" glyph-name="chevron-down" d="M272 1040l752-755.968 752 755.968 96-96-800-800-48-40-48 40-800 800 96 96z" />
<glyph unicode="&#xe909;" glyph-name="chevron-left" d="M1192 1472l96-96-660.032-656 660.032-656-96-96-704 704-40 48 40 48 704 704z" />
<glyph unicode="&#xe90a;" glyph-name="chevron-right" d="M856 1472l704-704 40-48-40-48-704-704-96 96 659.968 656-659.968 656 96 96z" />
<glyph unicode="&#xe90b;" glyph-name="chevron-up" d="M1024 1304l48-40 800-800-96-96-752 755.968-752-755.968-96 96 800 800 48 40z" />
<glyph unicode="&#xe90c;" glyph-name="fastforward" d="M920 1472l704-704 40-48-40-48-704-704-96 96 659.968 656-659.968 656 96 96zM536 1472l704-704 40-48-40-48-704-704-96 96 659.968 656-659.968 656 96 96z" />
<glyph unicode="&#xe90d;" glyph-name="fastbackward" d="M1128 1472l96-96-660.032-656 660.032-656-96-96-704 704-40 48 40 48 704 704zM1512 1472l96-96-660.032-656 660.032-656-96-96-704 704-40 48 40 48 704 704z" />
<glyph unicode="&#xe90e;" glyph-name="search" d="M764.032 1283.968c125.312 125.376 275.968 188.032 451.968 188.032s326.656-62.656 451.968-188.032c125.376-125.312 188.032-275.968 188.032-451.968s-62.656-326.656-188.032-451.968c-125.312-125.376-275.968-188.032-451.968-188.032-152 0-286.656 48-403.968 144l-508.032-512-96 96 512 508.032c-96 117.312-144 251.968-144 403.968 0 176 62.656 326.656 188.032 451.968zM1577.984 1193.984c-99.968 100.032-220.672 150.016-361.984 150.016-141.376 0-262.016-49.984-361.984-150.016s-150.016-220.672-150.016-361.984c0-141.376 49.984-262.016 150.016-361.984s220.608-150.016 361.984-150.016c141.312 0 262.016 49.984 361.984 150.016s150.016 220.608 150.016 361.984c0 141.312-49.984 262.016-150.016 361.984z" />
<glyph unicode="&#xe90f;" glyph-name="close" d="M464 1296l560-563.968 560 563.968 96-96-563.968-560 563.968-560-96-96-560 563.968-560-563.968-96 96 563.968 560-563.968 560 96 96z" />
<glyph unicode="&#xe910;" glyph-name="menu" d="M256 704h1536v-128h-1536v128zM256 1216v-128h1536v128h-1536zM256 64h1536v128h-1536v-128z" />
<glyph unicode="&#xe911;" glyph-name="reload" d="M1024 1408c232 0 424-88 576-264v200h128v-448h-448v128h252.032c-128 170.624-297.344 256-508.032 256-136 0-257.344-37.376-364.032-112-106.688-74.688-182.656-173.376-227.968-296l-120 48c56 144 148.608 261.312 278.016 352 129.28 90.624 273.984 136 433.984 136zM1616 408l120-48c-56-144-148.672-261.376-278.016-352-129.344-90.688-273.984-136-433.984-136-229.376 0-421.376 88-576 264v-200h-128v448h448v-128h-256c61.312-77.376 136.64-139.392 225.984-185.984 89.344-46.72 184.64-70.016 286.016-70.016 136 0 257.344 37.312 364.032 112 106.624 74.624 182.592 173.312 227.968 296z" />
<glyph unicode="&#xe912;" glyph-name="undo" d="M784 1328l96-96-403.968-400h867.968c122.624 0 227.968-44.032 315.968-131.968 88-88.064 132.032-193.408 132.032-316.032 0-122.688-44.032-227.968-131.968-316.032-88-87.936-193.344-131.968-316.032-131.968v128c88 0 163.328 31.296 225.984 94.016 62.656 62.592 94.016 137.984 94.016 225.984s-31.36 163.328-93.952 225.984c-62.72 62.656-138.048 94.016-226.048 94.016h-867.968l403.968-400-96-96-512 512-40 48 40 48 512 512z" />
<glyph unicode="&#xe913;" glyph-name="download" d="M448 0h1152v-128h-1152v128zM960 1408h128v-1059.968l336 339.968 96-96-448-448-48-40-48 40-448 448 96 96 336-339.968v1059.968z" />
<glyph unicode="&#xe914;" glyph-name="email" d="M192 1152v-1152h1664v1152h-1664zM1580.608 1024l-556.608-371.072-556.608 371.072h1113.216zM320 128v840.384l704-469.376 704 469.376v-840.384h-1408z" />
<glyph unicode="&#xe915;" glyph-name="error" d="M1306.5 512l-448-448h357.5v-128h-576v576h128v-357.5l357.5 357.5-384 384 493.25 493.25 90.5-90.5-402.75-402.75 384-384z" />
<glyph unicode="&#xe916;" glyph-name="flag" d="M320 1344v-1536h128v640h512v-192h768v896h-640v192zM448 1216h512v-640h-512zM1088 1024h512v-640h-512z" />
<glyph unicode="&#xe917;" glyph-name="language" d="M256 1408v-1152h384v-384h1152v1152h-384v384zM384 1280h896v-292l-604-604h-292zM704 1152v-64h-192v-128h316c-8.25-73.5-30.75-131.5-68-172-22 7.25-41.75 16.25-58 26-45 26.75-62 55.25-62 82h-128c0-76.25 47-139.75 110-182-31.5-6.75-68-10-110-10v-128c113.5 0 208 26 280 74 33.5-5.75 67.5-10 104-10v120c34.75 58.25 53.25 126.25 60 200h68v128h-192v64zM1372 896h292v-896h-896v292zM1280 778l-60-182-128-384-4-10v-74h128v56l2 8h124l2-8v-56h128v74l-4 10-128 384zM1280 376l18-56h-36z" />
<glyph unicode="&#xe918;" glyph-name="globe" d="M1792 640c0 423.488-344.512 768-768 768s-768-344.512-768-768c0-401.92 310.464-732.032 704-764.736v-3.264h128v3.264c393.6 32.704 704 362.816 704 764.736zM1439.488 353.664c16.32 69.696 26.88 144.32 30.656 222.336h190.656c-11.008-110.336-50.304-212.352-110.336-299.072-27.584 29.888-65.856 55.36-110.976 76.736zM1088 848.832c80.576 3.968 159.488 15.488 230.528 34.24 12.032-55.424 20.352-115.2 23.68-179.072h-254.208v144.832zM1088 976.896v287.552c74.432-34.432 146.752-126.080 195.456-258.56-54.144-14.336-119.488-25.088-195.456-28.992zM960 976.896c-75.968 3.968-141.312 14.656-195.456 29.056 48.704 132.416 121.024 224.064 195.456 258.56v-287.616zM960 848.832v-144.832h-254.208c3.328 63.808 11.648 123.584 23.68 179.072 71.040-18.816 149.952-30.272 230.528-34.24zM960 576v-144.832c-80.576-3.968-159.488-15.488-230.528-34.24-12.032 55.424-20.352 115.2-23.68 179.008h254.208zM960 303.104v-287.616c-74.432 34.432-146.752 126.080-195.456 258.56 54.144 14.4 119.488 25.152 195.456 29.056zM1088 303.104c75.968-3.968 141.312-14.656 195.456-29.056-48.704-132.416-121.024-224.064-195.456-258.56v287.616zM1088 431.168v144.832h254.208c-3.328-63.808-11.648-123.584-23.68-179.008-71.040 18.752-149.952 30.208-230.528 34.176zM1470.144 704c-3.776 78.016-14.272 152.704-30.656 222.336 45.12 21.44 83.392 46.848 110.976 76.736 59.968-86.72 99.328-188.736 110.336-299.072h-190.656zM1401.984 1051.072c-20.8 56.064-45.696 107.008-74.048 152 50.304-27.264 96.192-61.44 137.28-100.608-9.92-15.936-31.296-33.92-63.232-51.392zM646.016 1051.072c-31.936 17.472-53.312 35.456-63.232 51.328 41.088 39.232 86.976 73.344 137.28 100.608-28.352-44.864-53.248-95.808-74.048-151.936zM608.512 926.336c-16.32-69.632-26.88-144.32-30.656-222.336h-190.592c11.008 110.336 50.304 212.352 110.336 299.072 27.52-29.888 65.792-55.296 110.912-76.736zM577.856 576c3.776-78.016 14.272-152.64 30.656-222.336-45.12-21.44-83.392-46.848-110.976-76.736-59.968 86.72-99.264 188.736-110.272 299.072h190.592zM646.016 228.928c20.8-56.064 45.696-107.008 74.048-151.936-50.304 27.264-96.192 61.44-137.28 100.608 9.984 15.872 31.296 33.856 63.232 51.328zM1401.984 228.928c31.936-17.408 53.248-35.456 63.232-51.328-41.088-39.232-86.976-73.344-137.28-100.608 28.352 44.928 53.248 95.872 74.048 151.936z" />
<glyph unicode="&#xe919;" glyph-name="info-circle" d="M1024 1408c-424.156 0-768-343.844-768-768s343.844-768 768-768 768 343.844 768 768-343.844 768-768 768zM1024 0c-352.898 0-640 287.102-640 640s287.102 640 640 640 640-287.102 640-640-287.102-640-640-640zM960 768h128v-512h-128v512zM960 1024h128v-128h-128v128z" />
<glyph unicode="&#xe91a;" glyph-name="open-in-new-window" d="M320 1088h832l-128-128h-576v-896h896v576l128 128v-832h-1152v1152zM1152 1344h576v-576h-128v355.968l-784-787.968-96 96 788.032 784h-356.032v128z" />
<glyph unicode="&#xe91b;" glyph-name="change" d="M628.032 624l92.032-96-276.032-272h1347.968v-128h-1347.968l275.968-272-92.032-96-384 384-43.968 48 44.032 48 384 384zM1420.032 1520l384-384 43.968-48-44.032-48-384-384-92.032 96 276.032 272h-1347.968v128h1347.968l-275.968 272 92.032 96z" />
<glyph unicode="&#xe91c;" glyph-name="check" d="M1808 1264l96-96-1152-1152-48-40-48 40-512 512 96 96 464-467.968 1104 1107.968z" />
<glyph unicode="&#xe91d;" glyph-name="edit" d="M1536-128h-1280v1280h832l-128-128h-576v-1024h1024v576l128 128zM744 360l94.208 376.704 620.544 620.544c75.52 75.52 207.168 75.456 282.496 0 77.888-77.888 77.888-204.608 0-282.496l-620.544-620.544-376.704-94.208zM953.792 671.296l-33.792-135.296 135.296 33.792 595.456 595.456c27.968 27.968 27.968 73.536 0 101.504-27.136 27.136-74.368 27.2-101.504 0l-595.456-595.456z" />
<glyph unicode="&#xe91e;" glyph-name="trash" d="M896 1408h256c37.312 0 67.968-12.032 92.032-35.968s35.968-54.72 35.968-92.032v-64h384v-128h-64v-1024c0-53.376-18.688-98.688-56-136-37.376-37.376-82.688-56-136-56h-768c-53.376 0-98.688 18.624-136 56-37.376 37.312-56 82.624-56 136v1024h-64v128h384v64c0 37.312 12.032 67.968 35.968 92.032s54.656 35.968 92.032 35.968zM576 1088v-1024c0-18.688 6.016-33.984 17.984-46.016s27.328-17.984 46.016-17.984h768c18.624 0 33.984 6.016 46.016 17.984s17.984 27.328 17.984 46.016v1024h-896zM704 896h128v-704h-128v704zM896 1280v-64h256v64h-256zM960 896h128v-704h-128v704zM1216 896h128v-704h-128v704z" />
<glyph unicode="&#xe91f;" glyph-name="lock-closed" d="M1664 734.848v289.152c0 353.45-286.55 640-640 640s-640-286.55-640-640v-289.152c-76.374-43.52-128-125.526-128-219.734v-646.186c0-139.69 113.238-252.928 252.928-252.928h1030.186c139.648 0 252.886 113.238 252.886 252.928v646.144c0 94.208-51.626 176.256-128 219.776zM1024 1536c282.326 0 512-229.674 512-512v-256h-1024v256c0 282.326 229.674 512 512 512zM1664-131.072c0-68.906-56.022-124.928-124.928-124.928h-1030.144c-68.906 0-124.928 56.022-124.928 124.928v646.144c0 68.906 56.022 124.928 124.928 124.928h1030.186c68.864 0 124.886-56.022 124.886-124.928v-646.144zM1152 256c0-47.274-25.898-88.064-64-110.25v-145.75h-128v145.75c-38.102 22.186-64 62.976-64 110.25 0 70.698 57.302 128 128 128s128-57.302 128-128z" />
<glyph unicode="&#xe920;" glyph-name="lock-open" d="M1664 734.848v289.152c0 353.45-286.55 640-640 640s-640-286.55-640-640h128c0 282.326 229.674 512 512 512s512-229.674 512-512v-256h-1027.072c-139.69 0-252.928-113.238-252.928-252.928v-646.186c0-139.648 113.238-252.886 252.928-252.886h1030.186c139.648 0 252.886 113.238 252.886 252.928v646.144c0 94.208-51.626 176.256-128 219.776zM1664-131.072c0-68.906-56.022-124.928-124.928-124.928h-1030.144c-68.906 0-124.928 56.022-124.928 124.928v646.144c0 68.906 56.022 124.928 124.928 124.928h1030.186c68.864 0 124.886-56.022 124.886-124.928v-646.144zM1152 256c0-47.274-25.898-88.064-64-110.25v-145.75h-128v145.75c-38.102 22.186-64 62.976-64 110.25 0 70.698 57.302 128 128 128s128-57.302 128-128z" />
<glyph unicode="&#xe921;" glyph-name="security" d="M707.968 1339.968c88.064 88 193.344 132.032 316.032 132.032 122.624 0 227.968-44.032 316.032-131.968s131.968-193.408 131.968-316.032v-184c128-125.376 192-277.376 192-456 0-176-62.656-326.656-188.032-451.968-125.312-125.376-275.968-188.032-451.968-188.032s-326.656 62.656-451.968 188.032c-125.376 125.312-188.032 275.968-188.032 451.968 0 178.624 64 330.624 192 456v184c0 122.624 44.032 227.968 131.968 315.968zM1385.984 745.984c-99.968 99.968-220.672 150.016-361.984 150.016-141.376 0-262.016-49.984-361.984-150.016s-150.016-220.672-150.016-361.984c0-141.376 49.984-262.016 150.016-361.984 99.968-100.032 220.608-150.016 361.984-150.016 141.312 0 262.016 49.984 361.984 150.016 100.032 99.968 150.016 220.608 150.016 361.984 0 141.312-49.984 261.952-150.016 361.984zM1249.984 1249.984c-62.656 62.592-137.984 94.016-225.984 94.016s-163.392-31.36-225.984-94.016c-62.72-62.72-94.016-137.984-94.016-225.984v-88c101.312 58.624 208 88 320 88s218.624-29.376 320-88v88c0 88-31.36 163.264-94.016 225.984zM934.016 473.984c25.28 25.28 55.296 38.016 89.984 38.016 34.624 0 64.64-12.672 89.984-38.016 25.344-25.408 38.016-55.36 38.016-89.984 0-48-21.376-85.376-64-112v-208h-128v208c-42.688 26.624-64 64-64 112 0 34.624 12.608 64.576 38.016 89.984z" />
<glyph unicode="&#xe922;" glyph-name="user" d="M707.968 1212.032c88.064 87.936 193.344 131.968 316.032 131.968 122.624 0 227.968-44.032 316.032-131.968s131.968-193.408 131.968-316.032c0-74.688-17.984-145.344-54.016-211.968-35.968-66.688-84.672-120-145.984-160 117.312-50.688 211.968-128.704 284.032-233.984 72-105.408 107.968-223.424 107.968-354.048h-128c0 141.312-49.984 262.016-150.016 361.984s-220.672 150.016-361.984 150.016c-141.376 0-262.016-49.984-361.984-150.016s-150.016-220.672-150.016-361.984h-128c0 130.624 35.968 248.64 108.032 353.984 72 105.344 166.656 183.296 284.032 233.984-61.376 40-110.016 93.312-145.984 160-36.096 66.688-54.080 137.344-54.080 212.032 0 122.624 44.032 227.968 131.968 316.032zM1249.984 1121.984c-62.656 62.656-137.984 94.016-225.984 94.016s-163.392-31.36-225.984-94.016c-62.72-62.656-94.016-137.984-94.016-225.984s31.296-163.392 94.016-225.984c62.592-62.72 137.984-94.016 225.984-94.016s163.328 31.296 225.984 94.016c62.656 62.592 94.016 137.984 94.016 225.984s-31.36 163.328-94.016 225.984z" />
<glyph unicode="&#xe923;" glyph-name="group" d="M304 1104c74.624 74.688 165.312 112 272 112 106.624 0 197.312-37.376 272-112 74.624-74.688 112-165.312 112-272 0-130.688-53.376-234.688-160-312 98.624-48 173.312-117.376 224-208 50.624 90.624 125.312 160 224 208-106.688 77.312-160 181.312-160 312 0 106.624 37.312 197.312 112 272 74.624 74.688 165.312 112 272 112 106.624 0 197.312-37.376 272-112 74.624-74.688 112-165.312 112-272 0-130.688-53.376-234.688-160-312 88-42.688 158.016-104.704 209.984-185.984 52.032-81.344 78.016-171.328 78.016-270.016h-128c0 106.624-37.376 197.312-112 272-74.688 74.688-165.376 112-272 112-106.688 0-197.376-37.376-272-112-74.688-74.688-112-165.312-112-272h-128c0 106.624-37.376 197.312-112 272-74.688 74.688-165.376 112-272 112-106.688 0-197.376-37.376-272-112-74.688-74.688-112-165.312-112-272h-128c0 98.624 25.984 188.608 78.016 270.016 51.968 81.344 121.984 143.296 209.984 185.984-106.688 77.312-160 181.312-160 312 0 106.688 37.312 197.312 112 272zM758.016 1014.016c-49.408 49.344-110.016 73.984-182.016 73.984s-132.672-24.704-182.016-73.984c-49.344-49.344-73.984-110.016-73.984-182.016s24.64-132.672 73.984-182.016c49.344-49.344 110.016-73.984 182.016-73.984s132.608 24.64 182.016 73.984c49.28 49.344 73.984 110.016 73.984 182.016s-24.704 132.672-73.984 182.016zM1654.016 1014.016c-49.408 49.344-110.016 73.984-182.016 73.984s-132.672-24.704-182.016-73.984c-49.344-49.344-73.984-110.016-73.984-182.016s24.64-132.672 73.984-182.016c49.344-49.344 110.016-73.984 182.016-73.984s132.608 24.64 182.016 73.984c49.28 49.344 73.984 110.016 73.984 182.016s-24.704 132.672-73.984 182.016z" />
<glyph unicode="&#xe924;" glyph-name="adress-card-variant" d="M1728 1280h-1408c-70.592 0-128-57.408-128-128v-1024c0-70.592 57.408-128 128-128h1408c70.592 0 128 57.408 128 128v1024c0 70.592-57.408 128-128 128zM320 128v1024h1408l0.064-1024h-1408.064zM946.752 585.28c47.552 46.528 77.248 111.104 77.248 182.72 0 141.184-114.816 256-256 256s-256-114.816-256-256c0-71.616 29.696-136.192 77.248-182.72-85.184-57.536-141.248-155.008-141.248-265.28 0-21.888 2.24-43.328 6.464-64h133.312c-7.168 20.096-11.776 41.472-11.776 64 0 105.856 86.144 192 192 192s192-86.144 192-192c0-22.528-4.608-43.904-11.776-64h133.312c4.224 20.672 6.464 42.112 6.464 64 0 110.272-56.064 207.744-141.248 265.28zM640 768c0 70.592 57.408 128 128 128s128-57.408 128-128-57.408-128-128-128-128 57.408-128 128zM1216 704h384v-128h-384v128zM1216 384h384v-128h-384v128zM1216 1024h384v-128h-384v128z" />
<glyph unicode="&#xe925;" glyph-name="phone" d="M1456.896-192c-42.944 0-85.376 10.88-122.816 31.488-50.048 27.712-159.744 89.6-277.504 156.288-282.56 160.192-516.544 394.176-676.672 676.736-66.688 117.76-128.704 227.456-156.288 277.44-20.736 37.504-31.616 80-31.616 122.944 0 68.096 26.56 132.16 74.688 180.288l186.816 186.816c49.856 49.92 131.136 49.92 180.992 0l293.504-293.504c49.92-49.92 49.92-131.072 0-180.992l-143.424-143.424 23.616-39.36c88-146.624 211.968-270.592 358.592-358.592l39.296-23.616 143.424 143.424c49.856 49.856 131.136 49.856 180.992 0l293.504-293.504c49.92-49.856 49.92-131.136 0-180.992l-186.816-186.816c-48.128-48.128-112.192-74.624-180.288-74.624zM544 1349.504l-186.816-186.816c-23.616-23.68-37.184-56.384-37.184-89.792 0-21.696 5.248-42.24 15.616-61.056 27.456-49.664 89.152-158.912 155.584-276.16 148.736-262.4 366.016-479.744 628.416-628.48 117.312-66.432 226.496-128.128 276.224-155.648 48.064-26.432 111.424-17.664 150.784 21.632l186.816 186.816-293.44 293.504-214.080-214.080-125.056 75.008c-164.544 98.752-303.68 237.888-402.432 402.432l-75.008 125.056 214.144 214.144-293.568 293.44z" />
<glyph unicode="&#xe926;" glyph-name="map" d="M1792 1344v-1216l-512-227.968-512 192-512-220.032v1224l512 220.032 512-192 512 219.968zM704 1152l-320-128v-960l320 136v952zM832 1155.968v-952l384-144v952l-384 144zM1664 1152l-320-136v-952l320 136v952z" />
<glyph unicode="&#xe927;" glyph-name="pin" d="M1024 1536c-352.896 0-640-287.104-640-640 0-532.416 570.496-1108.224 594.752-1132.48l45.248-45.12 45.248 45.12c24.256 24.256 594.752 600.064 594.752 1132.48 0 352.896-287.104 640-640 640zM1024-97.856c-132.8 145.664-512 596.544-512 993.856 0 282.304 229.696 512 512 512s512-229.696 512-512c0-397.312-379.2-848.192-512-993.856zM1024 1216c-176.448 0-320-143.552-320-320s143.552-320 320-320 320 143.552 320 320-143.552 320-320 320zM1024 704c-105.856 0-192 86.144-192 192s86.144 192 192 192 192-86.144 192-192-86.144-192-192-192z" />
<glyph unicode="&#xe928;" glyph-name="stopwatch" d="M1088 1148.8v131.2h256v128h-640v-128h256v-131.2c-323.392-32.128-576-304.96-576-636.8 0-353.472 286.528-640 640-640s640 286.528 640 640c0 331.84-252.608 604.672-576 636.8zM1024 0c-282.304 0-512 229.696-512 512s229.696 512 512 512 512-229.696 512-512-229.696-512-512-512zM1088 576h256v-128h-384v384h128v-256z" />
<glyph unicode="&#xe929;" glyph-name="clock" d="M1661.184 211.712c87.040 125.44 130.816 268.16 130.816 428.288 0 160.064-43.776 302.72-130.752 428.16-55.552 82.432-126.656 153.536-209.088 209.088-125.44 86.976-268.096 130.752-428.16 130.752-160.192 0-302.912-43.84-428.352-130.88-82.304-55.488-153.28-126.528-208.768-208.768-87.104-125.504-130.88-268.224-130.88-428.352 0-160.192 43.84-302.976 130.944-428.48 55.488-82.176 126.4-153.088 208.576-208.576 125.504-87.104 268.288-130.944 428.48-130.944 160.064 0 302.784 43.776 428.224 130.816 82.368 55.488 153.408 126.592 208.96 208.896zM1519.424 235.456c-13.504-16.192-27.968-32-43.392-47.488s-31.232-29.888-47.424-43.392c-110.4-90.24-251.264-144.576-404.608-144.576-153.408 0-294.272 54.336-404.608 144.64-16.192 13.504-32 27.968-47.424 43.328-15.424 15.424-29.824 31.232-43.392 47.424-90.24 110.4-144.576 251.264-144.576 404.608 0 153.28 54.272 294.080 144.512 404.416 13.568 16.256 28.032 32.128 43.52 47.552s31.36 29.952 47.552 43.52c110.336 90.24 251.136 144.512 404.416 144.512s294.016-54.272 404.352-144.448c16.256-13.568 32.128-28.032 47.616-43.52s29.952-31.36 43.52-47.616c90.24-110.336 144.512-251.136 144.512-404.416 0-153.344-54.336-294.208-144.576-404.544zM1088 704h320v-128h-448v576h128v-448z" />
<glyph unicode="&#xe92a;" glyph-name="calendar" d="M1664 1344h-192v64h-128v-64h-640v64h-128v-64h-256v-1408h1408v1408h-64zM448 1216h128v-64h128v64h640v-64h128v64h128v-128h-1152v128zM1600 64h-1152v896h1152v-896zM960 704h-128v128h128v-128zM1216 704h-128v128h128v-128zM1472 704h-128v128h128v-128zM960 448h-128v128h128v-128zM704 448h-128v128h128v-128zM1216 448h-128v128h128v-128zM1472 448h-128v128h128v-128zM960 192h-128v128h128v-128zM704 192h-128v128h128v-128zM1216 192h-128v128h128v-128z" />
<glyph unicode="&#xe92b;" glyph-name="document" d="M384 1472v-1664h1280v1241.984l-17.984 19.968-384 384-20.032 18.048h-857.984zM512 1344h640v-384h384v-1024h-1024v1408zM1280 1251.968l163.968-163.968h-163.968v163.968z" />
<glyph unicode="&#xe92c;" glyph-name="PDF" d="M384 1472h1280v-1664h-1280v1664zM512 1344v-1408h1024v1408h-1024zM984 1000h4.032c21.312 0 41.344-6.656 60.032-19.968 13.312-13.376 24-30.656 32-51.968 10.624-29.376 14.656-69.376 12.032-120 0-16-4.672-40-14.016-72s-14.016-50.688-14.016-56c2.624-8 6.656-20.672 12.032-38.016 5.312-17.344 10.624-31.36 16-41.984 5.312-10.688 33.344-48 84.032-112 5.312 0 20.608 1.344 46.016 3.968 25.344 2.624 43.328 3.968 54.016 3.968 45.312-8 77.312-21.376 96-40 16-18.688 24-37.376 24-56 0-18.688-5.376-37.376-16-56v-3.968h-4.16c-24-42.688-57.408-62.656-100.032-60.032-32 2.624-66.688 18.624-104 48-5.376 5.312-12.672 15.296-22.016 30.016-9.344 14.656-16.704 23.296-22.016 25.984-5.376 0-18.688 0-40 0-21.376 0-38.72-2.688-52.032-8-13.376-2.688-30.016-8-49.984-16s-33.984-13.376-41.984-16c0-2.688-8-21.376-24-56-16-34.688-28.032-58.688-36.032-72-29.376-40-60.032-64-92.032-72-18.688-8-38.72-8-60.032 0-18.688 8-34.688 21.312-48 40-26.688 37.312-29.376 74.624-8 112 13.312 29.312 41.344 56 84.032 80 10.624 8 32 17.344 64 28.032 32 10.624 50.624 16 56 16 2.624 8 9.984 23.296 22.016 46.016 12.032 22.656 20.608 43.328 25.984 62.016 8 18.624 15.296 45.312 22.016 80 6.72 34.56 10.112 54.592 10.112 59.968-34.688 88-53.376 140.032-56 156.032-10.688 42.624-12.032 80-4.032 112 5.312 18.624 14.656 34.624 28.032 48 16 13.248 34.624 18.56 56 15.936zM808 296c-24-16-40-30.656-48-44.032-2.688-5.376-2.688-9.344 0-12.032h4.032v-3.968c10.624 5.312 25.344 18.624 44.032 40 0 2.624 2.624 9.344 8 19.968h-8.064zM1028.032 528c0-2.688-0.704-8-1.984-16-1.344-8-3.392-13.376-6.016-16 0-5.376-1.984-10.688-6.016-16-4.032-5.376-6.016-9.344-6.016-12.032l4.032 3.968h4.032c5.312 2.624 13.312 3.968 24 3.968 10.624 0 18.624 0 24 0-2.688 5.312-8 13.312-16 24-8.064 10.752-14.72 20.096-20.032 28.096zM1264 400c-2.688 0-8-1.344-16-3.968 16-13.376 26.624-19.968 32-19.968 5.312 0 10.624 3.968 16 12.032v3.968c-8 2.56-18.688 5.248-32 7.936z" />
<glyph unicode="&#xe92d;" glyph-name="social-facebook" d="M448 1344h1152c34.624 0 64.64-12.672 89.984-38.016s38.016-55.36 38.016-89.984v-1152c0-34.688-12.672-64.704-38.016-89.984-25.344-25.408-55.36-38.016-89.984-38.016h-1152c-34.688 0-64.704 12.608-89.984 38.016-25.408 25.28-38.016 55.296-38.016 89.984v1152c0 34.624 12.608 64.64 38.016 89.984 25.28 25.344 55.296 38.016 89.984 38.016zM448 1216v-1152h620.032v432h-168v192h168v144c0 80 22.656 142.656 67.968 188.032 45.312 45.312 105.344 67.968 179.968 67.968 69.312 0 118.656-2.688 147.968-8v-176h-103.936c-34.688 0-58.688-7.36-72-22.016-13.376-14.656-19.968-38.016-19.968-70.016v-124.032h188.032l-24-192h-163.968v-431.936h331.904v1152h-1152z" />
<glyph unicode="&#xe92e;" glyph-name="social-linkedin" d="M1689.984 1305.984c-25.344 25.344-55.36 38.016-89.984 38.016h-1152c-34.688 0-64.704-12.672-89.984-38.016-25.408-25.344-38.016-55.36-38.016-89.984v-1152c0-34.688 12.608-64.704 38.016-89.984 25.28-25.408 55.296-38.016 89.984-38.016h1152c34.624 0 64.64 12.608 89.984 38.016 25.344 25.28 38.016 55.296 38.016 89.984v1152c0 34.624-12.672 64.64-38.016 89.984zM1600 64h-1152v1152h1152v-1152zM1077.312 144.256h-208.64v671.872h200.256v-91.776h2.816c40.832 69.824 116.8 111.488 197.632 108.544 211.392 0 250.432-139.136 250.432-320.064l-0.064-368.64h-208.576v326.72c0 77.952-1.408 178.176-108.48 178.176-108.608 0-125.312-84.928-125.312-172.544v-332.288zM512.192 1028.992c0 66.816 54.208 121.088 121.024 121.088 66.88 0 121.088-54.208 121.088-121.024s-54.208-121.024-121.024-121.088c-66.88 0-121.088 54.208-121.088 121.024zM528.704 816.128h208.832v-671.872h-208.832v671.872z" />
<glyph unicode="&#xe92f;" glyph-name="social-twitter" d="M1792 1116.032c-42.688-64-94.656-118.656-156.032-163.968 0-13.376 0-26.688 0-40 0-106.688-19.968-211.968-60.032-316.032s-96.704-200-169.984-288c-73.344-88-168-158.656-284.032-211.968-115.968-53.376-243.392-80-382.016-80-176 0-337.344 46.656-483.968 140.032 24-2.688 49.344-3.968 76.032-3.968 146.624 0 277.312 45.312 392 136-69.376 0-130.688 20.608-184 62.016-53.376 41.344-90.688 94.016-112 158.016 18.624-5.376 38.656-8 60.032-8 29.312 0 57.344 3.968 83.968 12.032-74.688 16-136 52.608-184 110.016-48 57.344-72 123.328-72 198.016v3.968c45.312-24 93.312-37.376 144-40-93.312 63.808-139.968 151.808-139.968 263.808 0 56 14.656 109.312 44.032 160 168-208 384-318.656 648-332.032-5.376 24-8 48-8 72 0 88 30.656 162.624 92.032 224 61.312 61.312 136 92.032 224 92.032 90.624 0 166.656-33.344 227.968-99.968 72 13.312 138.624 38.656 200 76.032-24-74.688-69.376-131.968-136-172.032 61.312 7.936 121.28 23.936 179.968 48z" />
<glyph unicode="&#xe930;" glyph-name="social-insta" d="M1314.368-32h-644.736c-210.432 0-381.632 171.2-381.632 381.632v644.736c0 210.432 171.2 381.632 381.632 381.632h644.736c210.432 0 381.632-171.2 381.632-381.632v-644.736c0-210.432-171.2-381.632-381.632-381.632zM669.632 1248c-139.84 0-253.632-113.792-253.632-253.632v-644.736c0-139.904 113.792-253.632 253.632-253.632h644.736c139.904 0 253.632 113.728 253.632 253.632v644.736c0 139.84-113.728 253.632-253.632 253.632h-644.736zM992 320c-194.112 0-352 157.952-352 352 0 194.112 157.888 352 352 352 194.048 0 352-157.888 352-352 0-194.048-157.952-352-352-352zM992 896c-123.52 0-224-100.48-224-224s100.48-224 224-224 224 100.48 224 224-100.48 224-224 224zM1360 1120c-44.16 0-80-35.84-80-80s35.84-80 80-80 80 35.84 80 80-35.84 80-80 80z" />
<glyph unicode="&#xe931;" glyph-name="social-youtube" d="M1023.552 1088v0c225.92 0 582.4-10.496 668.224-33.984 32.896-8.832 58.816-34.816 67.84-68.224 27.648-100.928 32.768-321.728 32.384-398.912 0-76.416-5.952-296.96-32.512-397.952-8.832-32.896-34.816-58.816-67.008-67.52-90.496-23.808-458.304-32.704-668.928-32.704-209.792 0-576.704 9.216-668.224 33.984-32.896 8.832-58.816 34.816-67.584 67.328-26.688 100.352-32.576 321.6-32.64 398.336 0 76.416 5.952 296.96 32.512 397.952 8.768 32.704 36.224 60.544 67.008 68.992 90.496 23.808 458.368 32.704 668.928 32.704zM1023.552 1216c0 0-561.216 0-701.504-36.928-75.264-20.672-137.28-82.688-157.952-159.488-36.928-140.288-36.928-431.232-36.928-431.232s0-292.416 36.928-431.232c20.672-76.8 81.216-137.344 158.016-158.016 141.76-38.4 701.504-38.4 701.504-38.4s561.216 0 701.504 36.928c76.8 20.672 137.344 81.216 158.016 158.016 36.864 140.288 36.864 431.232 36.864 431.232s1.472 292.416-36.928 432.704c-20.672 76.8-81.216 137.344-158.016 158.016-140.288 38.4-701.504 38.4-701.504 38.4v0zM1344 608l-512 288v-576l512 288z" />
<glyph unicode="&#xe932;" glyph-name="cloud-upload" d="M1774.976 648.384c11.328 33.6 17.024 68.224 17.024 103.616 0 185.28-150.72 336-336 336-15.040 0-30.144-1.216-45.888-3.648-89.792 121.728-233.856 195.648-386.112 195.648-243.456 0-445.12-182.144-475.904-417.92-252.992-22.272-452.096-235.392-452.096-494.080 0-246.848 178.304-451.008 416-489.152v-6.848h1056c229.376 0 416 186.624 416 416 0 149.568-81.728 287.040-209.024 360.384zM1568 0l-989.632 0.768c-198.72 7.296-354.368 168.576-354.368 367.232 0 202.752 164.8 367.744 372.544 367.744 0.128 0 0.32 0 0.512 0l74.944-1.984v66.24c0 194.112 157.888 352 352 352 124.992 0 238.016-64.448 302.272-172.416l25.216-42.368 47.36 13.568c22.016 6.272 40.128 9.216 57.152 9.216 114.688 0 208-93.312 208-208 0-35.264-9.536-69.824-28.416-102.656l-37.568-65.408 70.656-26.432c112-41.856 187.328-150.208 187.328-269.504 0-158.784-129.216-288-288-288zM1024 794.496l301.248-301.248-90.496-90.496-146.752 146.752v-421.504h-128v421.504l-146.752-146.752-90.496 90.496 301.248 301.248z" />
<glyph unicode="&#xe933;" glyph-name="picture" d="M128 1344v-1408h1792v1408h-1792zM1792 1216v-869.504l-384 384-288-288-416 416-448-448v805.504h1536zM256 229.504l448 448 613.504-613.504h-1061.504v165.504zM1498.496 64l-288 288 197.504 197.504 384-384v-101.504h-293.504zM1408 960c0 70.72 57.28 128 128 128s128-57.28 128-128-57.28-128-128-128-128 57.28-128 128z" />
<glyph unicode="&#xe934;" glyph-name="calculate" d="M384 1472v-1664h1280v1664h-1280zM1523.584-51.584h-999.168v1383.168h999.104v-1383.168zM1408 1216h-768v-384h768v384zM1280 960h-512v128h512v-128zM768 576h-128v128h128v-128zM1280 704h128v-128h-128v128zM768 320h-128v128h128v-128zM1280 448h128v-128h-128v128zM960 704h128v-128h-128v128zM960 448h128v-128h-128v128zM768 64h-128v128h128v-128zM1280 192h128v-128h-128v128zM960 192h128v-128h-128v128z" />
<glyph unicode="&#xe935;" glyph-name="radio-off" d="M1024-128c-423.488 0-768 344.512-768 768s344.512 768 768 768c423.488 0 768-344.512 768-768s-344.512-768-768-768zM1024 1280c-352.896 0-640-287.104-640-640s287.104-640 640-640c352.896 0 640 287.104 640 640s-287.104 640-640 640z" />
<glyph unicode="&#xe936;" glyph-name="radio-on" d="M1024 1408c-423.488 0-768-344.512-768-768s344.512-768 768-768c423.488 0 768 344.512 768 768s-344.512 768-768 768zM1024 0c-352.896 0-640 287.104-640 640s287.104 640 640 640c352.896 0 640-287.104 640-640s-287.104-640-640-640zM1248 640c0-123.712-100.288-224-224-224s-224 100.288-224 224 100.288 224 224 224 224-100.288 224-224z" />
<glyph unicode="&#xe937;" glyph-name="communicate" d="M128 1344h1280v-1024h-616l-304-240-104-88v328h-256v1024zM256 1216v-768h256v-184l216 168 16 16h536v768h-1024zM1536 1088h384v-1024h-256v-328l-408 328h-592l160 128h480l232-184v184h256v768h-256v128z" />
<glyph unicode="&#xe938;" glyph-name="mobile" d="M1344-128h-640c-105.856 0-192 86.144-192 192v1152c0 105.856 86.144 192 192 192h640c105.856 0 192-86.144 192-192v-1152c0-105.856-86.144-192-192-192zM704 1280c-35.264 0-64-28.736-64-64v-1152c0-35.328 28.736-64 64-64h640c35.328 0 64 28.672 64 64v1152c0 35.264-28.672 64-64 64h-640zM1088 128c0-35.346-28.654-64-64-64s-64 28.654-64 64c0 35.346 28.654 64 64 64s64-28.654 64-64z" />
<glyph unicode="&#xe939;" glyph-name="expand" d="M1792 832v576h-576v-128h358.4l-550.4-550.4-550.4 550.4h358.4v128h-576v-576h128v358.4l550.4-550.4-550.4-550.4v358.4h-128v-576h576v128h-358.4l550.4 550.4 550.4-550.4h-358.4v-128h576v576h-128v-358.4l-550.4 550.4 550.4 550.4v-358.4z" />
<glyph unicode="&#xe93a;" glyph-name="checkbox-on" d="M1920-256h-1792v1792h1792v-1792zM256-128h1536v1536h-1536v-1536zM800 229.504l-301.248 301.248 90.496 90.496 210.752-210.752 690.752 690.752 90.496-90.496z" />
<glyph unicode="&#xe93b;" glyph-name="checkbox-off" d="M1920-256h-1792v1792h1792v-1792zM256-128h1536v1536h-1536v-1536z" />
<glyph unicode="&#xe93c;" glyph-name="fax" d="M1792 1216c0 105.856-86.144 192-192 192h-1152c-105.856 0-192-86.144-192-192v-896h320v-448h896v448h320v896zM1344 0h-640v512h640v-512zM1664 448h-192v192h-896v-192h-192v768c0 35.264 28.736 64 64 64h1152c35.328 0 64-28.736 64-64v-768zM960 1152h128v-128h-128v128zM704 1152h128v-128h-128v128zM704 896h128v-128h-128v128zM1216 1152h128v-128h-128v128zM1216 896h128v-128h-128v128zM960 896h128v-128h-128v128z" />
</font>
</defs>
</svg>
